Между небом и землей / Почти на небесах / Just Like Heaven (Марк Уотерс / Mark Waters) [2005, США, фэнтези, комедия, WEB-DLRip] AVO (Вартан Дохалов)

Reply to topic
DL-List and Torrent activity [Update пиров]
Size:  1.47 GB   |    Registered:  2 months 9 days   |    Completed:  0 times

Seeder not seen: Never

 
   
 
 
 
Author Message

Пушистый

Post 10-Aug-2019 21:14

[Quote]

Между небом и землей / Почти на небесах / Just Like Heaven
Страна: США
Жанр: фэнтези, комедия
Год выхода: 2005
Продолжительность: 01:34:37
Перевод: Авторский (одноголосый закадровый) Вартан Дохалов
Субтитры: нет
Режиссер: Марк Уотерс / Mark Waters
В ролях: Риз Уизерспун, Марк Руффало, Донал Лог, Дина Спайби, Бен Шенкман, Джон Хидер, Ивана Миличевич, Розалинд Чао, Кэролайн Аарон
Описание: Говорят, что настоящая любовь творит чудеса. Но сможет ли это чувство вернуть к жизни девушку, которая оказалась "между небом и землей" в буквальном смысле этого слова. Элизабет и Дэвиду предстоит преодолеть заоблачную реальность, чтобы принести друг другу счастье. Молодой архитектор влюбляется в прекрасную незнакомку. Вот только общение с ней становится все более странным. Девушка исчезает и неожиданно снова появляется рядом с героем. Своим поведением она наталкивает Дэвида на безумную мысль. А вдруг он полюбил самого настоящего призрака, который не может найти успокоение...?

Сэмпл: http://yadi.sk/i/SIjSZx1XYYYZjQ
Качество видео: WEB-DLRip (Источник: none WEB-DL 1080p)
Формат файла: AVI
Видео: XviD 73, 720x400, (16:9), 23,976 fps, 1760 Кбит/с, 8 бит, 0.26 bit/pixel
Аудио: Русский (АС3, 6 ch (Front: L C R, Side: L R, LFE), 48,0 KHz, 448 Kbps

MediaInfo

ОбщееПолное имя : D:\Фильмы на трекер\Между небом и землей (комедия, фэнтази 2005 год).aviФормат файла : AVIФормат файла/Информация : Audio Video InterleaveРазмер файла : 1,47 ГбайтПродолжительность : 1 ч. 34 м.Общий поток : 2217 Кбит/секПрограмма кодирования : VirtualDubMod 1.5.10.3 | www.virtualdub-fr.org || (build 2550/release)Библиотека кодирования : VirtualDubMod build 2550/release
ВидеоИдентификатор : 0Формат файла : MPEG-4 VisualПрофиль формата : Advanced Simple@L5Параметр BVOP формата : 2Параметр QPel формата : НетПараметр GMC формата : Без точки переходаПараметр матрицы формата : ВыборочнаяИдентификатор кодека : XVIDИдентификатор кодека/Подсказка : XviDПродолжительность : 1 ч. 34 м.Битрейт : 1760 Кбит/секШирина : 720 пикселейВысота : 400 пикселейСоотношение сторон : 16:9Частота кадров : 23,976 (23976/1000) кадра/секЦветовое пространство : YUVСубдискретизация насыщенности : 4:2:0Битовая глубина : 8 битТип развёртки : ПрогрессивнаяМетод сжатия : С потерямиБит/(Пиксели*Кадры) : 0.255Размер потока : 1,16 Гбайт (79%)Библиотека кодирования : XviD 73
АудиоИдентификатор : 1Формат файла : AC-3Формат файла/Информация : Audio Coding 3Расширение режима : CM (complete main)Параметр Endianness формата : BigИдентификатор кодека : 2000Продолжительность : 1 ч. 34 м.Вид битрейта : ПостоянныйБитрейт : 448 Кбит/секКаналы : 6 каналовРасположение каналов : Front: L C R, Side: L R, LFEЧастота : 48,0 КГцЧастота кадров : 31,250 кадров/сек (1536 spf)Метод сжатия : С потерямиРазмер потока : 303 Мбайт (20%)Выравнивание : Разделение по промежуткамПродолжительность промежутка : 42 мс. (1,00 видеокадр)Время предзагрузки промежутка : 500 мс.

Скриншот c названием фильма

Скриншоты



[geo-torrent.biz]_t_5764561.torrent
Torrent: Registered ·  [ 2019-08-10 21:14 ] ·  4404bddf4b626fc93d95d2b661ef08f674d9b8fe

15 KB

Status: checked
Completed: 0 times
Size: 1.47 GB
Rating: 
(Votes: 0)
Say thanks: 0  Thanks
Похожие темы
[Profile]    [PM]
Display posts from previous:    
Reply to topic

The time now is: Today 16:42

All times are GMT + 7 Hours



You cannot post new topics in this forum
You cannot reply to topics in this forum
You cannot edit your posts in this forum
You cannot delete your posts in this forum
You cannot vote in polls in this forum
You cannot attach files in this forum
You can download files in this forum