(Pop) [CD] VA - Love Song (Dance Classic) - 2002, FLAC (image+.cue), lossless

Reply to topic
DL-List and Torrent activity [Update пиров]
Size:  488 MB   |    Registered:  10 months 29 days   |    Completed:  1 time

Seeder not seen: 4 months 21 day

 
   
 
 
 
Author Message

Кейт

Post 05-May-2019 19:19

[Quote]

Love Song (Dance Classic)
Жанр: Pop
Носитель: CD
Страна-производитель диска (релиза): Украина
Год издания: 2002
Издатель (лейбл): Одиссей
Номер по каталогу: Odissey-14080209
Аудиокодек: FLAC (*.flac)
Тип рипа: image+.cue
Продолжительность: 01:16:24
Источник: собственный рип
Наличие сканов в содержимом раздачи: нет
Треклист:
01. Black - Wonderful Life
02. Hooverphonic - Mad About You
03. T.T.D'Arby - Sign Your Name
04. Darren Hayes - Insatiable
05. Enigma - Sadness
06. P.M.Dawn - Set Adrift On Memory Bliss
07. M People - Don't Look Any Further
08. Craig David - Walking Away
09. Garbage - Milk
10. Sarah Connor - From Sarah With Love
11. Jimmy Somerville - Safe
12. Soul II Soul - Back To Life
13. Atomic Kitten - Whole Again
14. Timmy Thomas - Why Can't We Live Together
15. Haddaway - I Miss You
16. Olive - I'm Not In Love
17. Alphawille - Summer Rain

Лог создания рипа

Exact Audio Copy V1.3 from 2. September 2016
Отчёт EAC об извлечении, выполненном 22. апреля 2019, 14:54
VA / Love Song (Dance Classic)
Дисковод: ASUS DRW-24D5MT Adapter: 1 ID: 0
Режим чтения : ДостоверностьИспользование точного потока : ДаОтключение кэша аудио : ДаИспользование указателей C2 : Нет
Коррекция смещения при чтении : 6Способность читать области Lead-in и Lead-out : НетЗаполнение пропущенных сэмплов тишиной : ДаУдаление блоков с тишиной в начале и конце : НетПри вычислениях CRC использовались нулевые сэмплы : ДаИнтерфейс : Встроенный Win32-интерфейс для Win NT/2000
Выходной формат : Пользовательский кодировщикВыбранный битрейт : 128 kBit/sКачество : ВысокийДобавление ID3-тега : НетУтилита сжатия : C:\Program Files (x86)\Exact Audio Copy\Flac\flac.exeДополнительные параметры : -V -8 -T "Date=%year%" -T "Genre=%genre%" %source%
TOC извлечённого CD
Трек | Старт | Длительность | Начальный сектор | Конечный сектор --------------------------------------------------------------------- 1 | 0:00.00 | 4:43.72 | 0 | 21296 2 | 4:43.72 | 3:35.29 | 21297 | 37450 3 | 8:19.26 | 4:26.49 | 37451 | 57449 4 | 12:46.00 | 4:59.68 | 57450 | 79942 5 | 17:45.68 | 4:42.68 | 79943 | 101160 6 | 22:28.61 | 5:12.09 | 101161 | 124569 7 | 27:40.70 | 5:24.23 | 124570 | 148892 8 | 33:05.18 | 3:16.36 | 148893 | 163628 9 | 36:21.54 | 3:57.38 | 163629 | 181441 10 | 40:19.17 | 4:09.51 | 181442 | 200167 11 | 44:28.68 | 4:34.00 | 200168 | 220717 12 | 49:02.68 | 6:31.34 | 220718 | 250076 13 | 55:34.27 | 3:00.74 | 250077 | 263650 14 | 58:35.26 | 3:56.43 | 263651 | 281393 15 | 62:31.69 | 5:06.26 | 281394 | 304369 16 | 67:38.20 | 4:27.20 | 304370 | 324414 17 | 72:05.40 | 4:18.28 | 324415 | 343792
Характеристики диапазона извлечения и сообщения об ошибках
Выбранный диапазон
Имя файла D:\Фильмы\VA - Love Song (Dance Classic) (2002)\VA - Love Song (Dance Classic).wav
Пиковый уровень 100.0 % Скорость извлечения 8.3 X Качество диапазона 99.9 % CRC теста 9D847A89 CRC копии 9D847A89 Копирование... OK
Ошибок не произошло
AccurateRip: сводка
Трек 1 отсутствует в базе данныхТрек 2 отсутствует в базе данныхТрек 3 отсутствует в базе данныхТрек 4 отсутствует в базе данныхТрек 5 отсутствует в базе данныхТрек 6 отсутствует в базе данныхТрек 7 отсутствует в базе данныхТрек 8 отсутствует в базе данныхТрек 9 отсутствует в базе данныхТрек 10 отсутствует в базе данныхТрек 11 отсутствует в базе данныхТрек 12 отсутствует в базе данныхТрек 13 отсутствует в базе данныхТрек 14 отсутствует в базе данныхТрек 15 отсутствует в базе данныхТрек 16 отсутствует в базе данныхТрек 17 отсутствует в базе данных
Ни одного трека нет в базе AccurateRip
Конец отчёта
==== Контрольная сумма отчёта 9EBBE5AF0A0A0445276B31214B41941E1A19E460B81A78F8C2AB5AA296CD5641 ====


[geo-torrent.biz]_t_5725339.torrent
Torrent: Registered ·  [ 2019-05-05 19:11 ] ·  3acc90adfd6f5a875cb7af3ed1d9ed0d568e5942

20 KB

Status: checked
Completed: 1 times
Size: 488 MB
Rating: 
(Votes: 0)
Say thanks: 0  Thanks
Похожие темы
[Profile]    [PM]
Display posts from previous:    
Reply to topic

The time now is: Today 17:00

All times are GMT + 7 Hours



You cannot post new topics in this forum
You cannot reply to topics in this forum
You cannot edit your posts in this forum
You cannot delete your posts in this forum
You cannot vote in polls in this forum
You cannot attach files in this forum
You can download files in this forum