(Pop) [CDS] Boyzone - Every Day I Love You - 1999, APE (image+.cue), lossless

Reply to topic
DL-List and Torrent activity [Update пиров]
Size:  66 MB   |    Registered:  11 months 19 days   |    Completed:  0 times

Seeder not seen: Never

 
   
 
 
 
Author Message

Кейт

Post 15-Apr-2019 12:48

[Quote]

Boyzone / Every Day I Love You
Жанр: Pop
Носитель: CDS
Страна-производитель диска (релиза): EU
Год издания: 1999
Издатель (лейбл): Polydor
Номер по каталогу: 561 581-2
Аудиокодек: APE (*.ape)
Тип рипа: image+.cue
Продолжительность: 00:10:06
Источник: собственный рип
Наличие сканов в содержимом раздачи: да
Треклист:
01. Every Day I Love You (03:34)
02. A Different Beat (Live From Sheffield Arena 15 May 1999) (04:32)
03. Boyzone Christmas Message (Live From The Video Shoot For Every Day I Love You In Prague on 16 October 1999) (01:59)

Лог создания рипа

Exact Audio Copy V1.3 from 2. September 2016
Отчёт EAC об извлечении, выполненном 14. апреля 2019, 11:21
Boyzone / Every Day I Love You
Дисковод: HL-DT-STBD-RE BH08LS20 Adapter: 1 ID: 0
Режим чтения : ДостоверностьИспользование точного потока : ДаОтключение кэша аудио : ДаИспользование указателей C2 : Нет
Коррекция смещения при чтении : 667Способность читать области Lead-in и Lead-out : НетЗаполнение пропущенных сэмплов тишиной : ДаУдаление блоков с тишиной в начале и конце : НетПри вычислениях CRC использовались нулевые сэмплы : ДаИнтерфейс : Встроенный Win32-интерфейс для Win NT/2000
Выходной формат : Monkey's Audio (без потерь)Выбранный битрейт : Fast Lossless CompressionКачество : ВысокийДобавление ID3-тега : НетУтилита сжатия : C:\Program Files\Monkey's Audio x64\MAC.exe
TOC извлечённого CD
Трек | Старт | Длительность | Начальный сектор | Конечный сектор --------------------------------------------------------------------- 1 | 0:00.00 | 3:34.42 | 0 | 16091 2 | 3:34.42 | 4:32.35 | 16092 | 36526 3 | 8:07.02 | 1:59.05 | 36527 | 45456
Характеристики диапазона извлечения и сообщения об ошибках
Выбранный диапазон
Имя файла E:\EAC\Boyzone - Every Day I Love You.wav
Пиковый уровень 97.9 % Скорость извлечения 5.0 X Качество диапазона 100.0 % CRC теста F63887AA CRC копии F63887AA Копирование... OK
Ошибок не произошло
AccurateRip: сводка
Трек 1 : извлечено точно (доверие 3) [9DBE9F5D] (AR v2)Трек 2 : извлечено точно (доверие 3) [F2CD385B] (AR v2)Трек 3 : извлечено точно (доверие 2) [84F7DF69] (AR v2)
Все треки извлечены точно
Конец отчёта
---- CUETools DB Plugin V2.1.6
[CTDB TOCID: IAJ6nb24CJq.1jokyaO7wi1olSA-] foundSubmit result: IAJ6nb24CJq.1jokyaO7wi1olSA- has been confirmedTrack | CTDB Status 1 | (4/4) Accurately ripped 2 | (4/4) Accurately ripped 3 | (4/4) Accurately ripped
==== Контрольная сумма отчёта 4F0E8B98955A88D941E0C17D11CA5248F096D5F3B2189FAAEC87F4C9030CE5F1 ====

Содержание индексной карты (.CUE)

REM GENRE PopREM DATE 1999REM DISCID 20025E03REM COMMENT "ExactAudioCopy v1.3"PERFORMER "Boyzone"TITLE "Every Day I Love You"REM COMPOSER ""FILE "Boyzone - Every Day I Love You.ape" WAVE TRACK 01 AUDIO TITLE "Every Day I Love You" PERFORMER "Boyzone" REM COMPOSER "" ISRC GBAKW9900364 INDEX 01 00:00:00 TRACK 02 AUDIO TITLE "A Different Beat (Live)" PERFORMER "Boyzone" REM COMPOSER "" ISRC GBAKW9900374 INDEX 00 03:33:00 INDEX 01 03:34:42 TRACK 03 AUDIO TITLE "Boyzone Christmas Message (Live)" PERFORMER "Boyzone" REM COMPOSER "" ISRC GBAKW9900372 INDEX 00 08:05:35 INDEX 01 08:07:02


[geo-torrent.biz]_t_5718440.torrent
Torrent: Registered ·  [ 2019-04-15 12:48 ] ·  6e53941e426e33aa5664b1bdc9e9d4f322cda1ac

11 KB

Status: checked
Completed: 0 times
Size: 66 MB
Rating: 
(Votes: 0)
Say thanks: 0  Thanks
Похожие темы
[Profile]    [PM]
Display posts from previous:    
Reply to topic

The time now is: Today 16:50

All times are GMT + 7 Hours



You cannot post new topics in this forum
You cannot reply to topics in this forum
You cannot edit your posts in this forum
You cannot delete your posts in this forum
You cannot vote in polls in this forum
You cannot attach files in this forum
You can download files in this forum