(Top 40, Pop, Pop-Rock, Electronic, Hip Hop, House) [CD] VA - BRAVO Hits 10 (2CD) - 1995, FLAC (image+.cue), lossless

Reply to topic
DL-List and Torrent activity [Update пиров]
Size:  1.07 GB   |    Registered:  11 months 21 day   |    Completed:  0 times

Seeder not seen: Never

 
   
 
 
 
Author Message

Кейт

Post 13-Apr-2019 14:01

[Quote]

BRAVO Hits 10 Жанр: Top 40, Pop, Pop-Rock, Electronic, Hip Hop, House, Electro, Hip-House, Synthpop, Europop, R&B, Pop Rap, Latin, Euro House, Downtempo, Indie Rock, Punk
Носитель: CD
Страна-производитель диска: Germany
Год издания: 26.05.1995
Издатель: WEA
Номер по каталогу: 9548-33602-2
Аудиокодек: FLAC (*.flac)
Тип рипа: image+.cue
Продолжительность: 02:30:59
Источник: интернет
Наличие сканов в содержимом раздачи: да
Треклист:

CD1 01:16:21

01. Marky Mark - No Mercy
02. Dj Bobo - There Is A Party
03. La Bouche - Be My Lover
04. Fun Factory - I Wanna B With U
05. Captain Hollywood Project - Find Another Way
06. Interactive - Living Without Your Love
07. Jam & Spoon Feat. Plavka - Angel
08. Mr. President - 4 On The Floor
09. Three-O-Matic - Hand In Hand
10. Corona - Baby Baby
11. Livin' Joy - Dreamer
12. Nina - The Reason Is You
13. 20 Fingers Feat. Roula - Lick It
14. Alex Party - Don't Give Me Your Life
15. Rmb - Love Is An Ocean
16. Scooter - Friends
17. Imperio - Nostra Culpa
18. Dj Hooligan - Sueno Futuro
19. Winx - Don't Laugh
20. Die Schlümpfe - Schlumpfen Cowboy Joe

CD2 01:14:29

01. Vangelis - Conquest Of Paradise
02. The Kelly Family - Roses Of Red
03. Celine Dion - Think Twice
04. Janet Jackson - Whoops Now
05. Pj & Duncan Aka - If I Give You My Number
06. Schwester S. - Hier Kommt Die Schwester
07. 2 Pac - Dear Mama
08. Sparks - When I Kiss You
09. Cosmix Feat. Ernie - Quietsche Entchen
10. Moby - Everytime You Touch Me
11. Loft - Don't Stop Me Now
12. Penelope - Take Your Chance
13. Sandra - Nights In White Satin
14. Simple Minds - Hypnotised
15. Fury In The Slaughterhouse - Down There
16. Duran Duran - Perfect Day
17. The Connelis - New Boy
18. Stefan Raab & Die Bekloppten - Ein Bett Im Kornfeld
19. Take That - Beatles Medley

Лог создания рипа CD1

Exact Audio Copy V1.0 beta 1 from 15. November 2010
EAC extraction logfile from 27. July 2013, 19:50
Various / Bravo Hits 10 (CD1)
Used drive : PIONEER DVD-RW DVR-110D Adapter: 0 ID: 2
Read mode : SecureUtilize accurate stream : YesDefeat audio cache : YesMake use of C2 pointers : No
Read offset correction : 48Overread into Lead-In and Lead-Out : NoFill up missing offset samples with silence : YesDelete leading and trailing silent blocks : NoNull samples used in CRC calculations : YesUsed interface : Native Win32 interface for Win NT & 2000
Used output format : User Defined EncoderSelected bitrate : 768 kBit/sQuality : HighAdd ID3 tag : NoCommand line compressor : C:\Program Files\Exact Audio Copy\FLAC\FLAC.EXEAdditional command line options : -6 -V -T "ARTIST=%a" -T "TITLE=%t" -T "ALBUM=%g" -T "DATE=%y" -T "TRACKNUMBER=%n" -T "GENRE=%m" -T "COMMENT=%e" %j--picture="%i"%j %s -o %d
TOC of the extracted CD
Track | Start | Length | Start sector | End sector --------------------------------------------------------- 1 | 0:00.00 | 3:41.10 | 0 | 16584 2 | 3:41.10 | 4:12.25 | 16585 | 35509 3 | 7:53.35 | 4:01.55 | 35510 | 53639 4 | 11:55.15 | 3:34.65 | 53640 | 69754 5 | 15:30.05 | 3:57.37 | 69755 | 87566 6 | 19:27.42 | 4:08.70 | 87567 | 106236 7 | 23:36.37 | 3:47.18 | 106237 | 123279 8 | 27:23.55 | 3:16.65 | 123280 | 138044 9 | 30:40.45 | 3:59.00 | 138045 | 155969 10 | 34:39.45 | 3:46.62 | 155970 | 172981 11 | 38:26.32 | 3:42.70 | 172982 | 189701 12 | 42:09.27 | 3:34.13 | 189702 | 205764 13 | 45:43.40 | 3:35.52 | 205765 | 221941 14 | 49:19.17 | 4:33.28 | 221942 | 242444 15 | 53:52.45 | 3:18.47 | 242445 | 257341 16 | 57:11.17 | 3:48.65 | 257342 | 274506 17 | 61:00.07 | 4:09.00 | 274507 | 293181 18 | 65:09.07 | 3:51.08 | 293182 | 310514 19 | 69:00.15 | 4:09.22 | 310515 | 329211 20 | 73:09.37 | 3:12.08 | 329212 | 343619
Range status and errors
Selected range
Filename D:\rip.flacmusic.ru\Various - Bravo Hits 10 (CD1).wav
Peak level 99.9 % Extraction speed 0.0 X Range quality 100.0 % Test CRC BB18F0C1 Copy CRC BB18F0C1 Copy OK
No errors occurred
AccurateRip summary
Track 1 accurately ripped (confidence 17) [A7A35321]Track 2 accurately ripped (confidence 18) [92F3F7BD]Track 3 accurately ripped (confidence 17) [EDE67E77]Track 4 accurately ripped (confidence 17) [6A01CF86]Track 5 accurately ripped (confidence 17) [DBB6081A]Track 6 accurately ripped (confidence 17) [A7ED1DC2]Track 7 accurately ripped (confidence 17) [B221980F]Track 8 accurately ripped (confidence 17) [D73ED479]Track 9 accurately ripped (confidence 17) [3C35CBA5]Track 10 accurately ripped (confidence 17) [FB9F9543]Track 11 accurately ripped (confidence 17) [49257889]Track 12 accurately ripped (confidence 17) [4B25F8CC]Track 13 accurately ripped (confidence 17) [5939C76C]Track 14 accurately ripped (confidence 17) [561B4CA1]Track 15 accurately ripped (confidence 17) [A3E7FB38]Track 16 accurately ripped (confidence 17) [1FA348D7]Track 17 accurately ripped (confidence 17) [A52604D0]Track 18 accurately ripped (confidence 17) [8FCA659C]Track 19 accurately ripped (confidence 17) [46C97265]Track 20 accurately ripped (confidence 18) [E4B60FE7]
All tracks accurately ripped
End of status report
==== Log checksum 1E701D01A0977C6EBD250A43D9305D11D1BFA15A1EB3F02451D520631E0AD406 ====

Лог создания рипа CD2

Exact Audio Copy V1.0 beta 1 from 15. November 2010
EAC extraction logfile from 28. July 2013, 12:39
Various / Bravo Hits 10 (CD2)
Used drive : PIONEER DVD-RW DVR-110D Adapter: 0 ID: 2
Read mode : SecureUtilize accurate stream : YesDefeat audio cache : YesMake use of C2 pointers : No
Read offset correction : 48Overread into Lead-In and Lead-Out : NoFill up missing offset samples with silence : YesDelete leading and trailing silent blocks : NoNull samples used in CRC calculations : YesUsed interface : Native Win32 interface for Win NT & 2000
Used output format : User Defined EncoderSelected bitrate : 768 kBit/sQuality : HighAdd ID3 tag : NoCommand line compressor : C:\Program Files\Exact Audio Copy\FLAC\FLAC.EXEAdditional command line options : -6 -V -T "ARTIST=%a" -T "TITLE=%t" -T "ALBUM=%g" -T "DATE=%y" -T "TRACKNUMBER=%n" -T "GENRE=%m" -T "COMMENT=%e" %j--picture="%i"%j %s -o %d
TOC of the extracted CD
Track | Start | Length | Start sector | End sector --------------------------------------------------------- 1 | 0:00.00 | 4:48.00 | 0 | 21599 2 | 4:48.00 | 3:41.72 | 21600 | 38246 3 | 8:29.72 | 4:10.73 | 38247 | 57069 4 | 12:40.70 | 3:40.55 | 57070 | 73624 5 | 16:21.50 | 3:15.67 | 73625 | 88316 6 | 19:37.42 | 3:55.00 | 88317 | 105941 7 | 23:32.42 | 4:39.35 | 105942 | 126901 8 | 28:12.02 | 3:45.53 | 126902 | 143829 9 | 31:57.55 | 4:53.10 | 143830 | 165814 10 | 36:50.65 | 3:52.22 | 165815 | 183236 11 | 40:43.12 | 3:53.43 | 183237 | 200754 12 | 44:36.55 | 3:23.62 | 200755 | 216041 13 | 48:00.42 | 3:31.45 | 216042 | 231911 14 | 51:32.12 | 4:30.50 | 231912 | 252211 15 | 56:02.62 | 3:34.15 | 252212 | 268276 16 | 59:37.02 | 3:48.05 | 268277 | 285381 17 | 63:25.07 | 3:25.13 | 285382 | 300769 18 | 66:50.20 | 4:00.15 | 300770 | 318784 19 | 70:50.35 | 3:38.60 | 318785 | 335194
Range status and errors
Selected range
Filename D:\rip.flacmusic.ru\Various - Bravo Hits 10 (CD2).wav
Peak level 99.9 % Extraction speed 0.0 X Range quality 99.9 % Test CRC 1C623CCB Copy CRC 1C623CCB Copy OK
No errors occurred
AccurateRip summary
Track 1 accurately ripped (confidence 5) [4CF5B3DE]Track 2 accurately ripped (confidence 5) [6E56037D]Track 3 accurately ripped (confidence 5) [3C71D666]Track 4 accurately ripped (confidence 5) [F6A0278F]Track 5 accurately ripped (confidence 5) [36F8C98C]Track 6 accurately ripped (confidence 5) [B7944E3E]Track 7 accurately ripped (confidence 5) [D3F84BC9]Track 8 accurately ripped (confidence 5) [53D58594]Track 9 accurately ripped (confidence 5) [093B5116]Track 10 accurately ripped (confidence 5) [03BD294B]Track 11 accurately ripped (confidence 5) [4BCF1D81]Track 12 accurately ripped (confidence 5) [71C0AF26]Track 13 accurately ripped (confidence 5) [F436FCD0]Track 14 accurately ripped (confidence 5) [0C200311]Track 15 accurately ripped (confidence 5) [3D6CCFDA]Track 16 accurately ripped (confidence 5) [F6C509C1]Track 17 accurately ripped (confidence 5) [B9AE8339]Track 18 accurately ripped (confidence 5) [B6926792]Track 19 accurately ripped (confidence 5) [33C8F9FE]
All tracks accurately ripped
End of status report
==== Log checksum AE6AE0F7C116C22D2038EA84A53A4C0A8FEB3DA05C831A4919DE1E0CE126727A ====

Содержание индексной карты (.CUE) CD1

REM GENRE PopREM DATE 1995REM DISCID 1011E514REM COMMENT "ExactAudioCopy v1.0b1"PERFORMER "Various"TITLE "Bravo Hits (1995) Vol.10 (CD 1)"FILE "Bravo Hits (1995) Vol.10 (CD 1).flac" WAVE TRACK 01 AUDIO TITLE "No Mercy (Fist Of The Tiger) (Radio Version)" PERFORMER "Marky Mark" INDEX 01 00:00:00 TRACK 02 AUDIO TITLE "There Is A Party" PERFORMER "DJ Bobo" INDEX 00 03:40:37 INDEX 01 03:41:10 TRACK 03 AUDIO TITLE "Be My Lover (Radio Edit)" PERFORMER "La Bouche" INDEX 00 07:51:57 INDEX 01 07:53:35 TRACK 04 AUDIO TITLE "I Wanna B With U (On The Air Rap)" PERFORMER "Fun Factory" INDEX 00 11:53:37 INDEX 01 11:55:15 TRACK 05 AUDIO TITLE "Find Another Way (Single Mix)" PERFORMER "Captain Hollywood Project" INDEX 00 15:28:27 INDEX 01 15:30:05 TRACK 06 AUDIO TITLE "Living Without Your Love (Radio Version)" PERFORMER "Interactive" INDEX 00 19:25:65 INDEX 01 19:27:42 TRACK 07 AUDIO TITLE "Angel (Ladadi O-Heyo) (Airplay Edit)" PERFORMER "Jam & Spoon Feat. Plavka" INDEX 00 23:34:60 INDEX 01 23:36:37 TRACK 08 AUDIO TITLE "4 On The Floor (Radio Edit)" PERFORMER "Mr. President" INDEX 00 27:22:03 INDEX 01 27:23:55 TRACK 09 AUDIO TITLE "Hand In Hand (Radio Mix-Video Version)" PERFORMER "Three-O-Matic" INDEX 00 30:38:68 INDEX 01 30:40:45 TRACK 10 AUDIO TITLE "Baby Baby (Lee Marrow Radio Mix)" PERFORMER "Corona" INDEX 00 34:37:67 INDEX 01 34:39:45 TRACK 11 AUDIO TITLE "Dreamer" PERFORMER "Livin' Joy" INDEX 00 38:24:57 INDEX 01 38:26:32 TRACK 12 AUDIO TITLE "The Reason Is You (Radio Mix)" PERFORMER "Nina" INDEX 00 42:07:52 INDEX 01 42:09:27 TRACK 13 AUDIO TITLE "Lick It (Clean Radio Mix)" PERFORMER "20 Fingers Feat. Roula" INDEX 00 45:41:62 INDEX 01 45:43:40 TRACK 14 AUDIO TITLE "Don't Give Me Your Life (Saturday Night FMS Edit)" PERFORMER "Alex Party" INDEX 00 49:17:41 INDEX 01 49:19:17 TRACK 15 AUDIO TITLE "Love Is An Ocean (Short Mix)" PERFORMER "RMB" INDEX 00 53:50:70 INDEX 01 53:52:45 TRACK 16 AUDIO TITLE "Friends" PERFORMER "Scooter" INDEX 00 57:09:37 INDEX 01 57:11:17 TRACK 17 AUDIO TITLE "Nostra Culpa" PERFORMER "Imperio" INDEX 00 60:58:30 INDEX 01 61:00:07 TRACK 18 AUDIO TITLE "Sueno Futuro (Wake Up And Dream) (Edit Version)" PERFORMER "DJ Hooligan" INDEX 00 65:07:32 INDEX 01 65:09:07 TRACK 19 AUDIO TITLE "Don't Laugh (Short Edit)" PERFORMER "Winx" INDEX 00 68:58:37 INDEX 01 69:00:15 TRACK 20 AUDIO TITLE "Schlumpfen Cowboy Joe (Cotton Eye Joe)" PERFORMER "Die Schlumpfe" INDEX 00 73:07:60 INDEX 01 73:09:37

Содержание индексной карты (.CUE) CD2

REM GENRE PopREM DATE 1995REM DISCID 1B117513REM COMMENT "ExactAudioCopy v1.0b1"PERFORMER "Various"TITLE "Bravo Hits (1995) Vol.10 (CD 2)"FILE "Bravo Hits (1995) Vol.10 (CD 2).flac" WAVE TRACK 01 AUDIO TITLE "Conquest Of Paradise" PERFORMER "Vangelis" INDEX 01 00:00:00 TRACK 02 AUDIO TITLE "Roses Of Red" PERFORMER "The Kelly Family" INDEX 00 04:46:22 INDEX 01 04:48:00 TRACK 03 AUDIO TITLE "Think Twice (Radio Edit)" PERFORMER "Celine Dion" INDEX 00 08:28:20 INDEX 01 08:29:72 TRACK 04 AUDIO TITLE "Whoops Now" PERFORMER "Janet Jackson" INDEX 00 12:39:17 INDEX 01 12:40:70 TRACK 05 AUDIO TITLE "If I Give You My Number (100% Radio Mix)" PERFORMER "PJ & Duncan AKA" INDEX 00 16:19:72 INDEX 01 16:21:50 TRACK 06 AUDIO TITLE "Hier Kommt Die Schwester" PERFORMER "Schwester S." INDEX 00 19:35:65 INDEX 01 19:37:42 TRACK 07 AUDIO TITLE "Dear Mama (Baby Mama Mix-Extra Clean Version)" PERFORMER "2 Pac" INDEX 00 23:30:65 INDEX 01 23:32:42 TRACK 08 AUDIO TITLE "When I Kiss You (I Hear Charlie Parker Playing) (Radio Edit)" PERFORMER "Sparks" INDEX 00 28:10:25 INDEX 01 28:12:02 TRACK 09 AUDIO TITLE "Quietsche-Entchen (S.O.S. Mix)" PERFORMER "Cosmix Feat. Ernie" INDEX 00 31:56:04 INDEX 01 31:57:55 TRACK 10 AUDIO TITLE "Everytime You Touch Me" PERFORMER "Moby" INDEX 00 36:49:13 INDEX 01 36:50:65 TRACK 11 AUDIO TITLE "Don't Stop Me Now (Radio Edit)" PERFORMER "Loft" INDEX 00 40:41:36 INDEX 01 40:43:12 TRACK 12 AUDIO TITLE "Take Your Chance (Single Mix)" PERFORMER "Penelope" INDEX 00 44:35:04 INDEX 01 44:36:55 TRACK 13 AUDIO TITLE "Nights In White Satin (Radio Edit)" PERFORMER "Sandra" INDEX 00 47:58:65 INDEX 01 48:00:42 TRACK 14 AUDIO TITLE "Hypnotised" PERFORMER "Simple Minds" INDEX 00 51:30:35 INDEX 01 51:32:12 TRACK 15 AUDIO TITLE "Down There (Radio Edit)" PERFORMER "Fury In The Slaughterhouse" INDEX 00 56:01:10 INDEX 01 56:02:62 TRACK 16 AUDIO TITLE "Perfect Day" PERFORMER "Duran Duran" INDEX 00 59:35:25 INDEX 01 59:37:02 TRACK 17 AUDIO TITLE "New Boy (Radio Edit)" PERFORMER "The Connells" INDEX 00 63:23:32 INDEX 01 63:25:07 TRACK 18 AUDIO TITLE "Ein Bett Im Kornfeld" PERFORMER "Stefan Raab & Die Bekloppten Feat. 'Onkel Jurgen' Drews & Burger Lars Dietrich" INDEX 00 66:48:42 INDEX 01 66:50:20 TRACK 19 AUDIO TITLE "Beatles Medley ('I Want To Hold Your Hand', 'Hard Days Night', 'She Loves You')" PERFORMER "Take That" INDEX 00 70:48:59 INDEX 01 70:50:35
Да не оскудеет рука нажавшего кнопку "Спасибо"
и оставшегося на раздаче!


[geo-torrent.biz]_t_5717722.torrent
Torrent: Registered ·  [ 2019-04-13 14:01 ] ·  d62c31e4f4846f8f53eacde6f6c08ec8e73a235e

12 KB

Status: checked
Completed: 0 times
Size: 1.07 GB
Rating: 
(Votes: 0)
Say thanks: 0  Thanks
Похожие темы
[Profile]    [PM]
Display posts from previous:    
Reply to topic

The time now is: Today 15:44

All times are GMT + 7 Hours



You cannot post new topics in this forum
You cannot reply to topics in this forum
You cannot edit your posts in this forum
You cannot delete your posts in this forum
You cannot vote in polls in this forum
You cannot attach files in this forum
You can download files in this forum