(Pop) Anna Maria Kaufmann - Venus In Love CDM - 1992, FLAC (image+.cue), lossless

Reply to topic
DL-List and Torrent activity [Update пиров]
Size:  108 MB   |    Registered:  11 months 21 day   |    Completed:  1 time

Seeder not seen: 4 months 21 day

 
   
 
 
 
Author Message

Кейт

Post 13-Apr-2019 14:01

[Quote]

Anna Maria Kaufmann / Venus In Love CDM
Жанр: Pop
Носитель: CDM
Страна-производитель диска (релиза): Germany
Год издания: 1992
Издатель (лейбл): Columbia
Номер по каталогу: 657990 2
Страна исполнителя (группы): Canada
Аудиокодек: FLAC (*.flac)
Тип рипа: image+.cue
Продолжительность: 00:13:20
Источник: собственный рип
Наличие сканов в содержимом раздачи: да
Треклист:
01. Venus In Love (*)
02. The Rose
03. All I Ask Of You (Phantom Of The Opera)
(*) Written By Ralf Rene Maue

Лог создания рипа

Exact Audio Copy V1.3 from 2. September 2016
Отчёт EAC об извлечении, выполненном 13. апреля 2019, 7:10
Anna Maria Kaufmann / Venus In Love CDM
Дисковод: ASUS DRW-24D5MT Adapter: 1 ID: 1
Режим чтения : ДостоверностьИспользование точного потока : ДаОтключение кэша аудио : ДаИспользование указателей C2 : Нет
Коррекция смещения при чтении : 6Способность читать области Lead-in и Lead-out : НетЗаполнение пропущенных сэмплов тишиной : ДаУдаление блоков с тишиной в начале и конце : НетПри вычислениях CRC использовались нулевые сэмплы : ДаИнтерфейс : Встроенный Win32-интерфейс для Win NT/2000
Выходной формат : Пользовательский кодировщикВыбранный битрейт : 896 kBit/sКачество : ВысокийДобавление ID3-тега : НетУтилита сжатия : C:\Program Files (x86)\Exact Audio Copy\flac-1.3.1-win\win64\flac.exeДополнительные параметры : -8 -V -T "ARTIST=%artist%" -T "TITLE=%title%" -T "ALBUM=%albumtitle%" -T "DATE=%year%" -T "TRACKNUMBER=%tracknr%/%numtracks%" -T "GENRE=%genre%" -T "COMMENT=%comment%" %source% -o %dest%
TOC извлечённого CD
Трек | Старт | Длительность | Начальный сектор | Конечный сектор --------------------------------------------------------------------- 1 | 0:00.00 | 5:08.00 | 0 | 23099 2 | 5:08.00 | 3:30.50 | 23100 | 38899 3 | 8:38.50 | 4:41.22 | 38900 | 59996
Характеристики диапазона извлечения и сообщения об ошибках
Выбранный диапазон
Имя файла F:\Lossless\_DJ Stakan\Anna Maria Kaufmann - Venus In Love CDM.wav
Пиковый уровень 100.0 % Скорость извлечения 1.2 X Качество диапазона 100.0 % CRC теста 5EEC9E65 CRC копии 5EEC9E65 Копирование... OK
Ошибок не произошло
AccurateRip: сводка
Трек 1 отсутствует в базе данныхТрек 2 отсутствует в базе данныхТрек 3 отсутствует в базе данных
Ни одного трека нет в базе AccurateRip
Конец отчёта
---- CUETools DB Plugin V2.1.6
[CTDB TOCID: 0Ww13fSyEUyeE3DQPcwdlYxbg_k-] disk not present in databaseSubmit result: 0Ww13fSyEUyeE3DQPcwdlYxbg_k- has been uploaded
==== Контрольная сумма отчёта 1FD0A470BD386B72C2B1C377EB523C99DE8E85B11179D618564A873FC8CEF71C ====

Содержание индексной карты (.CUE)

REM GENRE PopREM DATE 1992REM DISCID 0D031F03REM COMMENT "ExactAudioCopy v1.3"PERFORMER "Anna Maria Kaufmann"TITLE "Venus In Love CDM"REM COMPOSER ""FILE "Anna Maria Kaufmann - Venus In Love CDM.flac" WAVE TRACK 01 AUDIO TITLE "Venus In Love" PERFORMER "Anna Maria Kaufmann" REM COMPOSER "" INDEX 01 00:00:00 TRACK 02 AUDIO TITLE "The Rose" PERFORMER "Anna Maria Kaufmann" REM COMPOSER "" INDEX 00 05:06:65 INDEX 01 05:08:00 TRACK 03 AUDIO TITLE "All I Ask Of You (Phantom Of The Opera)" PERFORMER "Anna Maria Kaufmann" REM COMPOSER "" INDEX 00 08:38:25 INDEX 01 08:38:50
Anna Maria Kaufmann - Venus In Love CDM - 1992, MP3, 320 kbps


[geo-torrent.biz]_t_5717817.torrent
Torrent: Registered ·  [ 2019-04-13 14:01 ] ·  b75a0d4fffc4b44f062ee8b900ebffab3d95d95a

18 KB

Status: checked
Completed: 1 times
Size: 108 MB
Rating: 
(Votes: 0)
Say thanks: 0  Thanks
Похожие темы
[Profile]    [PM]
Display posts from previous:    
Reply to topic

The time now is: Today 16:16

All times are GMT + 7 Hours



You cannot post new topics in this forum
You cannot reply to topics in this forum
You cannot edit your posts in this forum
You cannot delete your posts in this forum
You cannot vote in polls in this forum
You cannot attach files in this forum
You can download files in this forum