[TR24][OF] Lily & Maria - Lily & Maria - 1968/2018 (Pop)

Reply to topic
DL-List and Torrent activity [Update пиров]
Size:  755 MB   |    Registered:  11 months 12 days   |    Completed:  0 times

Seeder not seen: Never

 
   
 
 
 
Author Message

КЭП

Post 11-Mar-2019 19:35

[Quote]

Lily & Maria / Lily & Maria
Формат файла записи/Источник записи: [TR24][OF]
Наличие водяных знаков: Нет
Год издания/переиздания диска: 1968/2018
Жанр: Pop
Издатель (лейбл): Columbia - Legacy
Продолжительность: 33:40
Наличие сканов в содержимом раздачи: Только обложка альбома
Треклист:
01. Subway Thoughts
02. Everybody Knows
03. I Was
04. Ismenê – Jasmine
05. There’ll Be No Clowns Tonight
06. Aftermath
07. Morning Glory Morning
08. Melt Me
09. Fourteen After One
Формат файла: FLAC (*.flac)
Тип рипа: tracks
Разрядность: 24/96
Формат файла: WAV (flac.ape.wv)
Количество каналов: 2.0

Лог проверки качества

foobar2000 1.3.7 / Dynamic Range Meter 1.1.1
--------------------------------------------------------------------------------Analyzed: Lily & Maria / Lily & Maria--------------------------------------------------------------------------------
DR Peak RMS Duration Track--------------------------------------------------------------------------------DR10 -11.34 dB -25.48 dB 1:28 01-Subway ThoughtsDR10 -2.26 dB -16.39 dB 4:34 02-Everybody KnowsDR12 -9.00 dB -26.31 dB 3:58 03-I WasDR10 -4.14 dB -19.63 dB 1:45 04-Ismenê JasmineDR10 -2.15 dB -18.07 dB 6:42 05-There'll Be No Clowns TonightDR11 -3.56 dB -19.10 dB 3:17 06-AftermathDR10 -4.81 dB -19.99 dB 3:14 07-Morning Glory MorningDR11 -2.88 dB -18.98 dB 5:24 08-Melt MeDR9 -4.74 dB -18.92 dB 3:20 09-Fourteen After One--------------------------------------------------------------------------------
Number of tracks: 9Official DR value: DR10
Samplerate: 96000 HzChannels: 2Bits per sample: 24Bitrate: 3141 kbpsCodec: FLAC================================================================================
Источник (релизер): http://www.qobuz.com/gb-en/album/lily-maria-lily-maria/boyg4wji6er8a


[geo-torrent.biz]_t_5698883.torrent
Torrent: Registered ·  [ 2019-03-11 19:32 ] ·  69276b50ebe202129e2897a2113f5b4255895470

16 KB

Status: checked
Completed: 0 times
Size: 755 MB
Rating: 
(Votes: 0)
Say thanks: 0  Thanks
Похожие темы
[Profile]    [PM]
Display posts from previous:    
Reply to topic

The time now is: Today 06:48

All times are GMT + 7 Hours



You cannot post new topics in this forum
You cannot reply to topics in this forum
You cannot edit your posts in this forum
You cannot delete your posts in this forum
You cannot vote in polls in this forum
You cannot attach files in this forum
You can download files in this forum