Cai Yilin Cài Yīlín 蔡依林 Jolin Tsai - 城堡 甜蜜慶功版 CD+DVD 台灣版 Castle Music Videos DVD [2004, Chinese Pop, Mandopop, DVD5]

Reply to topic
DL-List and Torrent activity [Update пиров]
Size:  2.14 GB   |    Registered:  1 year 9 months   |    Completed:  0 times

Seeder not seen: Never

 
   
 
 
 
Author Message

Мых

Post 05-May-2018 22:57

[Quote]

Cai Yilin Cài Yīlín 蔡依林 Jolin Tsai / 城堡 甜蜜慶功版 CD+DVD 台灣版 Castle Music Videos DVD
Страна: Taiwan
Жанр: Chinese Pop, Mandopop
Продолжительность:
01. 00:03:36
02. 00:04:17
03. 00:04:27
04. 00:04:36
05. 00:04:36
06. 00:03:47
07. 00:04:07
08. 00:03:33
09. 00:03:34
10. 00:04:24
Год выхода: 2004
Лейбл: Sony Music Entertainment Taiwan
Описание: Her acting while singing is really something. Watch her face in the second video, for example.
Треклист:
01. 愛情三十六計
02. 就是愛
03. 檸檬草的味道
04. 海盜
05. 始作俑者
06. Love, Love, Love
07. 消失的城堡
08. 乖貓
09. 第一優先
10. 倒帶
Дополнительная информация: The video is interlaced. In VLC Media Player, set "Video -> Deinterlace -> On" and "Video -> Deinterlace mode -> Bob".
Разбивка на главы по трекам: есть
Качество : DVD5
Формат файла: DVD video
Видео кодек: MPEG2
Аудио кодек: AC3
Видео: MPEG-2, 720x480 interlaced, 4:3, letterboxed to 720x370 interlaced, 16:8.22, variable bit rate (around 8000 kbps), 30 fps
Аудио: Chinese, AC3, 384 kbps, 48 kHz, 2 channels
Subtitles: Chinese, non-removable

DVDinfo

GeneralComplete name : VIDEO_TS\VIDEO_TS.BUPFormat : DVD VideoFormat profile : MenuFile size : 18.0 KiBOverall bit rate mode : VariableFileExtension_Invalid : ifo
VideoID : 224 (0xE0)Format : MPEG VideoFormat version : Version 2Bit rate mode : VariableWidth : 720 pixelsHeight : 480 pixelsDisplay aspect ratio : 4:3Frame rate : 29.970 (29970/1000) FPSStandard : NTSCCompression mode : Lossy
AudioFormat : AC-3Format/Info : Audio Coding 3Channel(s) : 1 channelSampling rate : 48.0 kHzCompression mode : Lossy
GeneralComplete name : VIDEO_TS\VIDEO_TS.IFOFormat : DVD VideoFormat profile : MenuFile size : 18.0 KiBOverall bit rate mode : Variable
VideoID : 224 (0xE0)Format : MPEG VideoFormat version : Version 2Bit rate mode : VariableWidth : 720 pixelsHeight : 480 pixelsDisplay aspect ratio : 4:3Frame rate : 29.970 (29970/1000) FPSStandard : NTSCCompression mode : Lossy
AudioFormat : AC-3Format/Info : Audio Coding 3Channel(s) : 1 channelSampling rate : 48.0 kHzCompression mode : Lossy
GeneralComplete name : VIDEO_TS\VTS_01_0.BUPFormat : DVD VideoFormat profile : ProgramFile size : 20.0 KiBDuration : 3 min 36 sOverall bit rate mode : VariableOverall bit rate : 756 b/sFileExtension_Invalid : ifo
VideoID : 224 (0xE0)Format : MPEG VideoFormat version : Version 2Duration : 3 min 36 sBit rate mode : VariableWidth : 720 pixelsHeight : 480 pixelsDisplay aspect ratio : 4:3Frame rate : 29.970 (29970/1000) FPSStandard : NTSCCompression mode : Lossy
AudioID : 128 (0x80)Format : AC-3Format/Info : Audio Coding 3Duration : 3 min 36 sChannel(s) : 2 channelsSampling rate : 48.0 kHzCompression mode : LossyLanguage : Chinese
MenuDuration : 3 min 36 s00:00:00.000 : Chapter 1List (Audio) : 0
GeneralComplete name : VIDEO_TS\VTS_01_0.IFOFormat : DVD VideoFormat profile : ProgramFile size : 20.0 KiBDuration : 3 min 36 sOverall bit rate mode : VariableOverall bit rate : 756 b/s
VideoID : 224 (0xE0)Format : MPEG VideoFormat version : Version 2Duration : 3 min 36 sBit rate mode : VariableWidth : 720 pixelsHeight : 480 pixelsDisplay aspect ratio : 4:3Frame rate : 29.970 (29970/1000) FPSStandard : NTSCCompression mode : Lossy
AudioID : 128 (0x80)Format : AC-3Format/Info : Audio Coding 3Duration : 3 min 36 sChannel(s) : 2 channelsSampling rate : 48.0 kHzCompression mode : LossyLanguage : Chinese
MenuDuration : 3 min 36 s00:00:00.000 : Chapter 1List (Audio) : 0
GeneralComplete name : VIDEO_TS\VTS_01_0.VOBFormat : MPEG-PSFile size : 19.5 MiBDuration : 23 s 104 msOverall bit rate mode : VariableOverall bit rate : 7 077 kb/s
VideoID : 224 (0xE0)Format : MPEG VideoFormat version : Version 2Format profile : Main@MainFormat settings, BVOP : YesFormat settings, Matrix : CustomFormat settings, GOP : VariableFormat settings, picture structure : FrameDuration : 33 msBit rate mode : VariableBit rate : 6 552 kb/sMaximum bit rate : 9 000 kb/sWidth : 720 pixelsHeight : 480 pixelsDisplay aspect ratio : 4:3Frame rate : 29.970 (30000/1001) FPSStandard : NTSCColor space : YUVChroma subsampling : 4:2:0Bit depth : 8 bitsScan type : InterlacedScan order : Top Field FirstCompression mode : LossyBits/(Pixel*Frame) : 0.633Time code of first frame : 00:09:42:10Time code source : Group of pictures headerGOP, Open/Closed : ClosedStream size : 26.7 KiB (0%)
AudioID : 189 (0xBD)-128 (0x80)Format : AC-3Format/Info : Audio Coding 3Format settings, Endianness : BigMuxing mode : DVD-VideoDuration : 23 s 104 msBit rate mode : ConstantBit rate : 384 kb/sChannel(s) : 2 channelsChannel positions : Front: L RSampling rate : 48.0 kHzFrame rate : 31.250 FPS (1536 SPF)Bit depth : 16 bitsCompression mode : LossyStream size : 1.06 MiB (5%)Service kind : Complete Main
TextID : 189 (0xBD)-32 (0x20)Format : RLEFormat/Info : Run-length encodingMuxing mode : DVD-Video
Menu
GeneralComplete name : VIDEO_TS\VTS_01_1.VOBFormat : MPEG-PSFile size : 158 MiBDuration : 3 min 36 sOverall bit rate mode : VariableOverall bit rate : 6 102 kb/s
VideoID : 224 (0xE0)Format : MPEG VideoFormat version : Version 2Format profile : Main@MainFormat settings, BVOP : YesFormat settings, Matrix : CustomFormat settings, GOP : VariableFormat settings, picture structure : FrameDuration : 3 min 36 sBit rate mode : VariableBit rate : 5 597 kb/sMaximum bit rate : 9 000 kb/sWidth : 720 pixelsHeight : 480 pixelsDisplay aspect ratio : 4:3Frame rate : 29.970 (30000/1001) FPSStandard : NTSCColor space : YUVChroma subsampling : 4:2:0Bit depth : 8 bitsScan type : InterlacedScan order : Top Field FirstCompression mode : LossyBits/(Pixel*Frame) : 0.540Time code of first frame : 00:00:30:02Time code source : Group of pictures headerGOP, Open/Closed : ClosedStream size : 145 MiB (92%)
AudioID : 189 (0xBD)-128 (0x80)Format : AC-3Format/Info : Audio Coding 3Format settings, Endianness : BigMuxing mode : DVD-VideoDuration : 3 min 36 sBit rate mode : ConstantBit rate : 384 kb/sChannel(s) : 2 channelsChannel positions : Front: L RSampling rate : 48.0 kHzFrame rate : 31.250 FPS (1536 SPF)Bit depth : 16 bitsCompression mode : LossyStream size : 9.93 MiB (6%)Service kind : Complete Main
Menu
GeneralComplete name : VIDEO_TS\VTS_02_0.BUPFormat : DVD VideoFormat profile : ProgramFile size : 14.0 KiBDuration : 4 min 17 sOverall bit rate mode : VariableOverall bit rate : 446 b/sFileExtension_Invalid : ifo
VideoID : 224 (0xE0)Format : MPEG VideoFormat version : Version 2Duration : 4 min 17 sBit rate mode : VariableWidth : 720 pixelsHeight : 480 pixelsDisplay aspect ratio : 4:3Frame rate : 29.970 (29970/1000) FPSStandard : NTSCCompression mode : Lossy
AudioID : 128 (0x80)Format : AC-3Format/Info : Audio Coding 3Duration : 4 min 17 sChannel(s) : 2 channelsSampling rate : 48.0 kHzCompression mode : LossyLanguage : Chinese
MenuDuration : 4 min 17 s00:00:00.000 : Chapter 1List (Audio) : 0
GeneralComplete name : VIDEO_TS\VTS_02_0.IFOFormat : DVD VideoFormat profile : ProgramFile size : 14.0 KiBDuration : 4 min 17 sOverall bit rate mode : VariableOverall bit rate : 446 b/s
VideoID : 224 (0xE0)Format : MPEG VideoFormat version : Version 2Duration : 4 min 17 sBit rate mode : VariableWidth : 720 pixelsHeight : 480 pixelsDisplay aspect ratio : 4:3Frame rate : 29.970 (29970/1000) FPSStandard : NTSCCompression mode : Lossy
AudioID : 128 (0x80)Format : AC-3Format/Info : Audio Coding 3Duration : 4 min 17 sChannel(s) : 2 channelsSampling rate : 48.0 kHzCompression mode : LossyLanguage : Chinese
MenuDuration : 4 min 17 s00:00:00.000 : Chapter 1List (Audio) : 0
GeneralComplete name : VIDEO_TS\VTS_02_1.VOBFormat : MPEG-PSFile size : 236 MiBDuration : 4 min 17 sOverall bit rate mode : VariableOverall bit rate : 7 679 kb/s
VideoID : 224 (0xE0)Format : MPEG VideoFormat version : Version 2Format profile : Main@MainFormat settings, BVOP : YesFormat settings, Matrix : CustomFormat settings, GOP : M=3, N=15Format settings, picture structure : FrameDuration : 4 min 17 sBit rate mode : VariableBit rate : 7 142 kb/sMaximum bit rate : 9 000 kb/sWidth : 720 pixelsHeight : 480 pixelsDisplay aspect ratio : 4:3Frame rate : 29.970 (30000/1001) FPSStandard : NTSCColor space : YUVChroma subsampling : 4:2:0Bit depth : 8 bitsScan type : InterlacedScan order : Top Field FirstCompression mode : LossyBits/(Pixel*Frame) : 0.690Time code of first frame : 00:00:35:00Time code source : Group of pictures headerGOP, Open/Closed : ClosedStream size : 219 MiB (93%)
AudioID : 189 (0xBD)-128 (0x80)Format : AC-3Format/Info : Audio Coding 3Format settings, Endianness : BigMuxing mode : DVD-VideoDuration : 4 min 17 sBit rate mode : ConstantBit rate : 384 kb/sChannel(s) : 2 channelsChannel positions : Front: L RSampling rate : 48.0 kHzFrame rate : 31.250 FPS (1536 SPF)Bit depth : 16 bitsCompression mode : LossyStream size : 11.8 MiB (5%)Service kind : Complete Main
Menu
GeneralComplete name : VIDEO_TS\VTS_03_0.BUPFormat : DVD VideoFormat profile : ProgramFile size : 16.0 KiBDuration : 4 min 27 sOverall bit rate mode : VariableOverall bit rate : 490 b/sFileExtension_Invalid : ifo
VideoID : 224 (0xE0)Format : MPEG VideoFormat version : Version 2Duration : 4 min 27 sBit rate mode : VariableWidth : 720 pixelsHeight : 480 pixelsDisplay aspect ratio : 4:3Frame rate : 29.970 (29970/1000) FPSStandard : NTSCCompression mode : Lossy
AudioID : 128 (0x80)Format : AC-3Format/Info : Audio Coding 3Duration : 4 min 27 sChannel(s) : 2 channelsSampling rate : 48.0 kHzCompression mode : LossyLanguage : Chinese
MenuDuration : 4 min 27 s00:00:00.000 : Chapter 1List (Audio) : 0
GeneralComplete name : VIDEO_TS\VTS_03_0.IFOFormat : DVD VideoFormat profile : ProgramFile size : 16.0 KiBDuration : 4 min 27 sOverall bit rate mode : VariableOverall bit rate : 490 b/s
VideoID : 224 (0xE0)Format : MPEG VideoFormat version : Version 2Duration : 4 min 27 sBit rate mode : VariableWidth : 720 pixelsHeight : 480 pixelsDisplay aspect ratio : 4:3Frame rate : 29.970 (29970/1000) FPSStandard : NTSCCompression mode : Lossy
AudioID : 128 (0x80)Format : AC-3Format/Info : Audio Coding 3Duration : 4 min 27 sChannel(s) : 2 channelsSampling rate : 48.0 kHzCompression mode : LossyLanguage : Chinese
MenuDuration : 4 min 27 s00:00:00.000 : Chapter 1List (Audio) : 0
GeneralComplete name : VIDEO_TS\VTS_03_1.VOBFormat : MPEG-PSFile size : 248 MiBDuration : 4 min 27 sOverall bit rate mode : VariableOverall bit rate : 7 779 kb/s
VideoID : 224 (0xE0)Format : MPEG VideoFormat version : Version 2Format profile : Main@MainFormat settings, BVOP : YesFormat settings, Matrix : CustomFormat settings, GOP : M=3, N=15Format settings, picture structure : FrameDuration : 4 min 27 sBit rate mode : VariableBit rate : 7 240 kb/sMaximum bit rate : 9 000 kb/sWidth : 720 pixelsHeight : 480 pixelsDisplay aspect ratio : 4:3Frame rate : 29.970 (30000/1001) FPSStandard : NTSCColor space : YUVChroma subsampling : 4:2:0Bit depth : 8 bitsScan type : InterlacedScan order : Top Field FirstCompression mode : LossyBits/(Pixel*Frame) : 0.699Time code of first frame : 00:00:33:05Time code source : Group of pictures headerGOP, Open/Closed : ClosedStream size : 231 MiB (93%)
AudioID : 189 (0xBD)-128 (0x80)Format : AC-3Format/Info : Audio Coding 3Format settings, Endianness : BigMuxing mode : DVD-VideoDuration : 4 min 27 sBit rate mode : ConstantBit rate : 384 kb/sChannel(s) : 2 channelsChannel positions : Front: L RSampling rate : 48.0 kHzFrame rate : 31.250 FPS (1536 SPF)Bit depth : 16 bitsCompression mode : LossyStream size : 12.3 MiB (5%)Service kind : Complete Main
Menu
GeneralComplete name : VIDEO_TS\VTS_04_0.BUPFormat : DVD VideoFormat profile : ProgramFile size : 16.0 KiBDuration : 4 min 36 sOverall bit rate mode : VariableOverall bit rate : 474 b/sFileExtension_Invalid : ifo
VideoID : 224 (0xE0)Format : MPEG VideoFormat version : Version 2Duration : 4 min 36 sBit rate mode : VariableWidth : 720 pixelsHeight : 480 pixelsDisplay aspect ratio : 4:3Frame rate : 29.970 (29970/1000) FPSStandard : NTSCCompression mode : Lossy
AudioID : 128 (0x80)Format : AC-3Format/Info : Audio Coding 3Duration : 4 min 36 sChannel(s) : 2 channelsSampling rate : 48.0 kHzCompression mode : LossyLanguage : Chinese
MenuDuration : 4 min 36 s00:00:00.000 : Chapter 1List (Audio) : 0
GeneralComplete name : VIDEO_TS\VTS_04_0.IFOFormat : DVD VideoFormat profile : ProgramFile size : 16.0 KiBDuration : 4 min 36 sOverall bit rate mode : VariableOverall bit rate : 474 b/s
VideoID : 224 (0xE0)Format : MPEG VideoFormat version : Version 2Duration : 4 min 36 sBit rate mode : VariableWidth : 720 pixelsHeight : 480 pixelsDisplay aspect ratio : 4:3Frame rate : 29.970 (29970/1000) FPSStandard : NTSCCompression mode : Lossy
AudioID : 128 (0x80)Format : AC-3Format/Info : Audio Coding 3Duration : 4 min 36 sChannel(s) : 2 channelsSampling rate : 48.0 kHzCompression mode : LossyLanguage : Chinese
MenuDuration : 4 min 36 s00:00:00.000 : Chapter 1List (Audio) : 0
GeneralComplete name : VIDEO_TS\VTS_04_1.VOBFormat : MPEG-PSFile size : 257 MiBDuration : 4 min 36 sOverall bit rate mode : VariableOverall bit rate : 7 777 kb/s
VideoID : 224 (0xE0)Format : MPEG VideoFormat version : Version 2Format profile : Main@MainFormat settings, BVOP : YesFormat settings, Matrix : CustomFormat settings, GOP : VariableFormat settings, picture structure : FrameDuration : 4 min 36 sBit rate mode : VariableBit rate : 7 239 kb/sMaximum bit rate : 9 000 kb/sWidth : 720 pixelsHeight : 480 pixelsDisplay aspect ratio : 4:3Frame rate : 29.970 (30000/1001) FPSStandard : NTSCColor space : YUVChroma subsampling : 4:2:0Bit depth : 8 bitsScan type : InterlacedScan order : Top Field FirstCompression mode : LossyBits/(Pixel*Frame) : 0.699Time code of first frame : 00:00:30:25Time code source : Group of pictures headerGOP, Open/Closed : ClosedStream size : 239 MiB (93%)
AudioID : 189 (0xBD)-128 (0x80)Format : AC-3Format/Info : Audio Coding 3Format settings, Endianness : BigMuxing mode : DVD-VideoDuration : 4 min 36 sBit rate mode : ConstantBit rate : 384 kb/sChannel(s) : 2 channelsChannel positions : Front: L RSampling rate : 48.0 kHzFrame rate : 31.250 FPS (1536 SPF)Bit depth : 16 bitsCompression mode : LossyStream size : 12.7 MiB (5%)Service kind : Complete Main
Menu
GeneralComplete name : VIDEO_TS\VTS_05_0.BUPFormat : DVD VideoFormat profile : ProgramFile size : 16.0 KiBDuration : 4 min 36 sOverall bit rate mode : VariableOverall bit rate : 475 b/sFileExtension_Invalid : ifo
VideoID : 224 (0xE0)Format : MPEG VideoFormat version : Version 2Duration : 4 min 36 sBit rate mode : VariableWidth : 720 pixelsHeight : 480 pixelsDisplay aspect ratio : 4:3Frame rate : 29.970 (29970/1000) FPSStandard : NTSCCompression mode : Lossy
AudioID : 128 (0x80)Format : AC-3Format/Info : Audio Coding 3Duration : 4 min 36 sChannel(s) : 2 channelsSampling rate : 48.0 kHzCompression mode : LossyLanguage : Chinese
MenuDuration : 4 min 36 s00:00:00.000 : Chapter 1List (Audio) : 0
GeneralComplete name : VIDEO_TS\VTS_05_0.IFOFormat : DVD VideoFormat profile : ProgramFile size : 16.0 KiBDuration : 4 min 36 sOverall bit rate mode : VariableOverall bit rate : 475 b/s
VideoID : 224 (0xE0)Format : MPEG VideoFormat version : Version 2Duration : 4 min 36 sBit rate mode : VariableWidth : 720 pixelsHeight : 480 pixelsDisplay aspect ratio : 4:3Frame rate : 29.970 (29970/1000) FPSStandard : NTSCCompression mode : Lossy
AudioID : 128 (0x80)Format : AC-3Format/Info : Audio Coding 3Duration : 4 min 36 sChannel(s) : 2 channelsSampling rate : 48.0 kHzCompression mode : LossyLanguage : Chinese
MenuDuration : 4 min 36 s00:00:00.000 : Chapter 1List (Audio) : 0
GeneralComplete name : VIDEO_TS\VTS_05_1.VOBFormat : MPEG-PSFile size : 202 MiBDuration : 4 min 36 sOverall bit rate mode : VariableOverall bit rate : 6 137 kb/s
VideoID : 224 (0xE0)Format : MPEG VideoFormat version : Version 2Format profile : Main@MainFormat settings, BVOP : YesFormat settings, Matrix : CustomFormat settings, GOP : M=3, N=15Format settings, picture structure : FrameDuration : 4 min 36 sBit rate mode : VariableBit rate : 5 631 kb/sMaximum bit rate : 9 000 kb/sWidth : 720 pixelsHeight : 480 pixelsDisplay aspect ratio : 4:3Frame rate : 29.970 (30000/1001) FPSStandard : NTSCColor space : YUVChroma subsampling : 4:2:0Bit depth : 8 bitsScan type : InterlacedScan order : Top Field FirstCompression mode : LossyBits/(Pixel*Frame) : 0.544Time code of first frame : 00:00:31:00Time code source : Group of pictures headerGOP, Open/Closed : ClosedStream size : 186 MiB (92%)
AudioID : 189 (0xBD)-128 (0x80)Format : AC-3Format/Info : Audio Coding 3Format settings, Endianness : BigMuxing mode : DVD-VideoDuration : 4 min 36 sBit rate mode : ConstantBit rate : 384 kb/sChannel(s) : 2 channelsChannel positions : Front: L RSampling rate : 48.0 kHzFrame rate : 31.250 FPS (1536 SPF)Bit depth : 16 bitsCompression mode : LossyStream size : 12.7 MiB (6%)Service kind : Complete Main
Menu
GeneralComplete name : VIDEO_TS\VTS_06_0.BUPFormat : DVD VideoFormat profile : ProgramFile size : 14.0 KiBDuration : 3 min 47 sOverall bit rate mode : VariableOverall bit rate : 504 b/sFileExtension_Invalid : ifo
VideoID : 224 (0xE0)Format : MPEG VideoFormat version : Version 2Duration : 3 min 47 sBit rate mode : VariableWidth : 720 pixelsHeight : 480 pixelsDisplay aspect ratio : 4:3Frame rate : 29.970 (29970/1000) FPSStandard : NTSCCompression mode : Lossy
AudioID : 128 (0x80)Format : AC-3Format/Info : Audio Coding 3Duration : 3 min 47 sChannel(s) : 2 channelsSampling rate : 48.0 kHzCompression mode : LossyLanguage : Chinese
MenuDuration : 3 min 47 s00:00:00.000 : Chapter 1List (Audio) : 0
GeneralComplete name : VIDEO_TS\VTS_06_0.IFOFormat : DVD VideoFormat profile : ProgramFile size : 14.0 KiBDuration : 3 min 47 sOverall bit rate mode : VariableOverall bit rate : 504 b/s
VideoID : 224 (0xE0)Format : MPEG VideoFormat version : Version 2Duration : 3 min 47 sBit rate mode : VariableWidth : 720 pixelsHeight : 480 pixelsDisplay aspect ratio : 4:3Frame rate : 29.970 (29970/1000) FPSStandard : NTSCCompression mode : Lossy
AudioID : 128 (0x80)Format : AC-3Format/Info : Audio Coding 3Duration : 3 min 47 sChannel(s) : 2 channelsSampling rate : 48.0 kHzCompression mode : LossyLanguage : Chinese
MenuDuration : 3 min 47 s00:00:00.000 : Chapter 1List (Audio) : 0
GeneralComplete name : VIDEO_TS\VTS_06_1.VOBFormat : MPEG-PSFile size : 212 MiBDuration : 3 min 47 sOverall bit rate mode : VariableOverall bit rate : 7 815 kb/s
VideoID : 224 (0xE0)Format : MPEG VideoFormat version : Version 2Format profile : Main@MainFormat settings, BVOP : YesFormat settings, Matrix : CustomFormat settings, GOP : VariableFormat settings, picture structure : FrameDuration : 3 min 47 sBit rate mode : VariableBit rate : 7 276 kb/sMaximum bit rate : 9 000 kb/sWidth : 720 pixelsHeight : 480 pixelsDisplay aspect ratio : 4:3Frame rate : 29.970 (30000/1001) FPSStandard : NTSCColor space : YUVChroma subsampling : 4:2:0Bit depth : 8 bitsScan type : InterlacedScan order : Top Field FirstCompression mode : LossyBits/(Pixel*Frame) : 0.702Time code of first frame : 00:00:30:02Time code source : Group of pictures headerGOP, Open/Closed : ClosedStream size : 197 MiB (93%)
AudioID : 189 (0xBD)-128 (0x80)Format : AC-3Format/Info : Audio Coding 3Format settings, Endianness : BigMuxing mode : DVD-VideoDuration : 3 min 47 sBit rate mode : ConstantBit rate : 384 kb/sChannel(s) : 2 channelsChannel positions : Front: L RSampling rate : 48.0 kHzFrame rate : 31.250 FPS (1536 SPF)Bit depth : 16 bitsCompression mode : LossyStream size : 10.4 MiB (5%)Service kind : Complete Main
Menu
GeneralComplete name : VIDEO_TS\VTS_07_0.BUPFormat : DVD VideoFormat profile : ProgramFile size : 14.0 KiBDuration : 4 min 7 sOverall bit rate mode : VariableOverall bit rate : 464 b/sFileExtension_Invalid : ifo
VideoID : 224 (0xE0)Format : MPEG VideoFormat version : Version 2Duration : 4 min 7 sBit rate mode : VariableWidth : 720 pixelsHeight : 480 pixelsDisplay aspect ratio : 4:3Frame rate : 29.970 (29970/1000) FPSStandard : NTSCCompression mode : Lossy
AudioID : 128 (0x80)Format : AC-3Format/Info : Audio Coding 3Duration : 4 min 7 sChannel(s) : 2 channelsSampling rate : 48.0 kHzCompression mode : LossyLanguage : Chinese
MenuDuration : 4 min 7 s00:00:00.000 : Chapter 1List (Audio) : 0
GeneralComplete name : VIDEO_TS\VTS_07_0.IFOFormat : DVD VideoFormat profile : ProgramFile size : 14.0 KiBDuration : 4 min 7 sOverall bit rate mode : VariableOverall bit rate : 464 b/s
VideoID : 224 (0xE0)Format : MPEG VideoFormat version : Version 2Duration : 4 min 7 sBit rate mode : VariableWidth : 720 pixelsHeight : 480 pixelsDisplay aspect ratio : 4:3Frame rate : 29.970 (29970/1000) FPSStandard : NTSCCompression mode : Lossy
AudioID : 128 (0x80)Format : AC-3Format/Info : Audio Coding 3Duration : 4 min 7 sChannel(s) : 2 channelsSampling rate : 48.0 kHzCompression mode : LossyLanguage : Chinese
MenuDuration : 4 min 7 s00:00:00.000 : Chapter 1List (Audio) : 0
GeneralComplete name : VIDEO_TS\VTS_07_1.VOBFormat : MPEG-PSFile size : 237 MiBDuration : 4 min 7 sOverall bit rate mode : VariableOverall bit rate : 8 026 kb/s
VideoID : 224 (0xE0)Format : MPEG VideoFormat version : Version 2Format profile : Main@MainFormat settings, BVOP : YesFormat settings, Matrix : CustomFormat settings, GOP : M=3, N=15Format settings, picture structure : FrameDuration : 4 min 7 sBit rate mode : VariableBit rate : 7 482 kb/sMaximum bit rate : 9 000 kb/sWidth : 720 pixelsHeight : 480 pixelsDisplay aspect ratio : 4:3Frame rate : 29.970 (30000/1001) FPSStandard : NTSCColor space : YUVChroma subsampling : 4:2:0Bit depth : 8 bitsScan type : InterlacedScan order : Top Field FirstCompression mode : LossyBits/(Pixel*Frame) : 0.722Time code of first frame : 00:08:31:00Time code source : Group of pictures headerGOP, Open/Closed : ClosedStream size : 221 MiB (93%)
AudioID : 189 (0xBD)-128 (0x80)Format : AC-3Format/Info : Audio Coding 3Format settings, Endianness : BigMuxing mode : DVD-VideoDuration : 4 min 7 sBit rate mode : ConstantBit rate : 384 kb/sChannel(s) : 2 channelsChannel positions : Front: L RSampling rate : 48.0 kHzFrame rate : 31.250 FPS (1536 SPF)Bit depth : 16 bitsCompression mode : LossyStream size : 11.3 MiB (5%)Service kind : Complete Main
Menu
GeneralComplete name : VIDEO_TS\VTS_08_0.BUPFormat : DVD VideoFormat profile : ProgramFile size : 14.0 KiBDuration : 3 min 33 sOverall bit rate mode : VariableOverall bit rate : 538 b/sFileExtension_Invalid : ifo
VideoID : 224 (0xE0)Format : MPEG VideoFormat version : Version 2Duration : 3 min 33 sBit rate mode : VariableWidth : 720 pixelsHeight : 480 pixelsDisplay aspect ratio : 4:3Frame rate : 29.970 (29970/1000) FPSStandard : NTSCCompression mode : Lossy
AudioID : 128 (0x80)Format : AC-3Format/Info : Audio Coding 3Duration : 3 min 33 sChannel(s) : 2 channelsSampling rate : 48.0 kHzCompression mode : LossyLanguage : Chinese
MenuDuration : 3 min 33 s00:00:00.000 : Chapter 1List (Audio) : 0
GeneralComplete name : VIDEO_TS\VTS_08_0.IFOFormat : DVD VideoFormat profile : ProgramFile size : 14.0 KiBDuration : 3 min 33 sOverall bit rate mode : VariableOverall bit rate : 538 b/s
VideoID : 224 (0xE0)Format : MPEG VideoFormat version : Version 2Duration : 3 min 33 sBit rate mode : VariableWidth : 720 pixelsHeight : 480 pixelsDisplay aspect ratio : 4:3Frame rate : 29.970 (29970/1000) FPSStandard : NTSCCompression mode : Lossy
AudioID : 128 (0x80)Format : AC-3Format/Info : Audio Coding 3Duration : 3 min 33 sChannel(s) : 2 channelsSampling rate : 48.0 kHzCompression mode : LossyLanguage : Chinese
MenuDuration : 3 min 33 s00:00:00.000 : Chapter 1List (Audio) : 0
GeneralComplete name : VIDEO_TS\VTS_08_1.VOBFormat : MPEG-PSFile size : 200 MiBDuration : 3 min 33 sOverall bit rate mode : VariableOverall bit rate : 7 861 kb/s
VideoID : 224 (0xE0)Format : MPEG VideoFormat version : Version 2Format profile : Main@MainFormat settings, BVOP : YesFormat settings, Matrix : CustomFormat settings, GOP : M=3, N=15Format settings, picture structure : FrameDuration : 3 min 33 sBit rate mode : VariableBit rate : 7 321 kb/sMaximum bit rate : 9 000 kb/sWidth : 720 pixelsHeight : 480 pixelsDisplay aspect ratio : 4:3Frame rate : 29.970 (30000/1001) FPSStandard : NTSCColor space : YUVChroma subsampling : 4:2:0Bit depth : 8 bitsScan type : InterlacedScan order : Top Field FirstCompression mode : LossyBits/(Pixel*Frame) : 0.707Time code of first frame : 00:09:51:01Time code source : Group of pictures headerGOP, Open/Closed : ClosedStream size : 186 MiB (93%)
AudioID : 189 (0xBD)-128 (0x80)Format : AC-3Format/Info : Audio Coding 3Format settings, Endianness : BigMuxing mode : DVD-VideoDuration : 3 min 33 sBit rate mode : ConstantBit rate : 384 kb/sChannel(s) : 2 channelsChannel positions : Front: L RSampling rate : 48.0 kHzFrame rate : 31.250 FPS (1536 SPF)Bit depth : 16 bitsCompression mode : LossyStream size : 9.76 MiB (5%)Service kind : Complete Main
Menu
GeneralComplete name : VIDEO_TS\VTS_09_0.BUPFormat : DVD VideoFormat profile : ProgramFile size : 14.0 KiBDuration : 3 min 34 sOverall bit rate mode : VariableOverall bit rate : 535 b/sFileExtension_Invalid : ifo
VideoID : 224 (0xE0)Format : MPEG VideoFormat version : Version 2Duration : 3 min 34 sBit rate mode : VariableWidth : 720 pixelsHeight : 480 pixelsDisplay aspect ratio : 4:3Frame rate : 29.970 (29970/1000) FPSStandard : NTSCCompression mode : Lossy
AudioID : 128 (0x80)Format : AC-3Format/Info : Audio Coding 3Duration : 3 min 34 sChannel(s) : 2 channelsSampling rate : 48.0 kHzCompression mode : LossyLanguage : Chinese
MenuDuration : 3 min 34 s00:00:00.000 : Chapter 1List (Audio) : 0
GeneralComplete name : VIDEO_TS\VTS_09_0.IFOFormat : DVD VideoFormat profile : ProgramFile size : 14.0 KiBDuration : 3 min 34 sOverall bit rate mode : VariableOverall bit rate : 535 b/s
VideoID : 224 (0xE0)Format : MPEG VideoFormat version : Version 2Duration : 3 min 34 sBit rate mode : VariableWidth : 720 pixelsHeight : 480 pixelsDisplay aspect ratio : 4:3Frame rate : 29.970 (29970/1000) FPSStandard : NTSCCompression mode : Lossy
AudioID : 128 (0x80)Format : AC-3Format/Info : Audio Coding 3Duration : 3 min 34 sChannel(s) : 2 channelsSampling rate : 48.0 kHzCompression mode : LossyLanguage : Chinese
MenuDuration : 3 min 34 s00:00:00.000 : Chapter 1List (Audio) : 0
GeneralComplete name : VIDEO_TS\VTS_09_1.VOBFormat : MPEG-PSFile size : 208 MiBDuration : 3 min 34 sOverall bit rate mode : VariableOverall bit rate : 8 132 kb/s
VideoID : 224 (0xE0)Format : MPEG VideoFormat version : Version 2Format profile : Main@MainFormat settings, BVOP : YesFormat settings, Matrix : CustomFormat settings, GOP : VariableFormat settings, picture structure : FrameDuration : 3 min 34 sBit rate mode : VariableBit rate : 7 586 kb/sMaximum bit rate : 9 000 kb/sWidth : 720 pixelsHeight : 480 pixelsDisplay aspect ratio : 4:3Frame rate : 29.970 (30000/1001) FPSStandard : NTSCColor space : YUVChroma subsampling : 4:2:0Bit depth : 8 bitsScan type : InterlacedScan order : Top Field FirstCompression mode : LossyBits/(Pixel*Frame) : 0.732Time code of first frame : 00:01:00:00Time code source : Group of pictures headerGOP, Open/Closed : ClosedStream size : 194 MiB (93%)
AudioID : 189 (0xBD)-128 (0x80)Format : AC-3Format/Info : Audio Coding 3Format settings, Endianness : BigMuxing mode : DVD-VideoDuration : 3 min 34 sBit rate mode : ConstantBit rate : 384 kb/sChannel(s) : 2 channelsChannel positions : Front: L RSampling rate : 48.0 kHzFrame rate : 31.250 FPS (1536 SPF)Bit depth : 16 bitsCompression mode : LossyStream size : 9.82 MiB (5%)Service kind : Complete Main
Menu
GeneralComplete name : VIDEO_TS\VTS_10_0.BUPFormat : DVD VideoFormat profile : ProgramFile size : 16.0 KiBDuration : 4 min 24 sOverall bit rate mode : VariableOverall bit rate : 496 b/sFileExtension_Invalid : ifo
VideoID : 224 (0xE0)Format : MPEG VideoFormat version : Version 2Duration : 4 min 24 sBit rate mode : VariableWidth : 720 pixelsHeight : 480 pixelsDisplay aspect ratio : 4:3Frame rate : 29.970 (29970/1000) FPSStandard : NTSCCompression mode : Lossy
AudioID : 128 (0x80)Format : AC-3Format/Info : Audio Coding 3Duration : 4 min 24 sChannel(s) : 2 channelsSampling rate : 48.0 kHzCompression mode : LossyLanguage : Chinese
MenuDuration : 4 min 24 s00:00:00.000 : Chapter 1List (Audio) : 0
GeneralComplete name : VIDEO_TS\VTS_10_0.IFOFormat : DVD VideoFormat profile : ProgramFile size : 16.0 KiBDuration : 4 min 24 sOverall bit rate mode : VariableOverall bit rate : 496 b/s
VideoID : 224 (0xE0)Format : MPEG VideoFormat version : Version 2Duration : 4 min 24 sBit rate mode : VariableWidth : 720 pixelsHeight : 480 pixelsDisplay aspect ratio : 4:3Frame rate : 29.970 (29970/1000) FPSStandard : NTSCCompression mode : Lossy
AudioID : 128 (0x80)Format : AC-3Format/Info : Audio Coding 3Duration : 4 min 24 sChannel(s) : 2 channelsSampling rate : 48.0 kHzCompression mode : LossyLanguage : Chinese
MenuDuration : 4 min 24 s00:00:00.000 : Chapter 1List (Audio) : 0
GeneralComplete name : VIDEO_TS\VTS_10_1.VOBFormat : MPEG-PSFile size : 214 MiBDuration : 4 min 24 sOverall bit rate mode : VariableOverall bit rate : 6 768 kb/s
VideoID : 224 (0xE0)Format : MPEG VideoFormat version : Version 2Format profile : Main@MainFormat settings, BVOP : YesFormat settings, Matrix : CustomFormat settings, GOP : M=3, N=15Format settings, picture structure : FrameDuration : 4 min 24 sBit rate mode : VariableBit rate : 6 249 kb/sMaximum bit rate : 9 000 kb/sWidth : 720 pixelsHeight : 480 pixelsDisplay aspect ratio : 4:3Frame rate : 29.970 (30000/1001) FPSStandard : NTSCColor space : YUVChroma subsampling : 4:2:0Bit depth : 8 bitsScan type : InterlacedScan order : Top Field FirstCompression mode : LossyBits/(Pixel*Frame) : 0.603Time code of first frame : 00:10:07:00Time code source : Group of pictures headerGOP, Open/Closed : ClosedStream size : 197 MiB (92%)
AudioID : 189 (0xBD)-128 (0x80)Format : AC-3Format/Info : Audio Coding 3Format settings, Endianness : BigMuxing mode : DVD-VideoDuration : 4 min 24 sBit rate mode : ConstantBit rate : 384 kb/sChannel(s) : 2 channelsChannel positions : Front: L RSampling rate : 48.0 kHzFrame rate : 31.250 FPS (1536 SPF)Bit depth : 16 bitsCompression mode : LossyStream size : 12.1 MiB (6%)Service kind : Complete Main
Menu

Скриншоты меню

Скриншоты





[geo-torrent.biz]_t_5553944.torrent
Torrent: Registered ·  [ 2018-05-05 22:57 ] ·  eafe6410af4cea2074287f1a0ea2fa2fec32389c

13 KB

Status: checked
Completed: 0 times
Size: 2.14 GB
Rating: 
(Votes: 0)
Say thanks: 0  Thanks
Похожие темы
[Profile]    [PM]
Display posts from previous:    
Reply to topic

The time now is: Today 06:52

All times are GMT + 7 Hours



You cannot post new topics in this forum
You cannot reply to topics in this forum
You cannot edit your posts in this forum
You cannot delete your posts in this forum
You cannot vote in polls in this forum
You cannot attach files in this forum
You can download files in this forum