Наталья Кустинская. Красота как проклятье [2018, Документальный, биография, кинематограф, IPTVRip]

Reply to topic
DL-List and Torrent activity [Update пиров]
Size:  608 MB   |    Registered:  1 month 26 days   |    Completed:  0 times

Seeder not seen: Never

 
   
 
 
 
Author Message

Генри

Post 29-Dec-2019 00:35

[Quote]

Наталья Кустинская. Красота как проклятье
Дата/Год выхода: 2018
Страна: Россия, Первый канал
Жанр: Документальный, биография, кинематограф
Продолжительность: 00:44:44
Перевод: Не требуется
Русские субтитры: нет
Описание: Наталья Кустинская в СССР была "товаром на экспорт" - как чёрная икра. Советские девушки старались подражать ей во всём, а французский таблоид "Candide" включил Кустинскую в десятку красивейших актрис мира. В её карьере практически не было главных ролей, но зато эпизоды были впечатляющими, как, например, незабываемая подружка режиссера Якина из комедии Гайдая "Иван Васильевич меняет профессию". Или коварная обольстительница Полина Лахновская-Полипова из сериала "Вечный зов". Но всё началось после роли юной кинозвезды в комедии "Три плюс два", где загорелая блондинка появилась в бикини - впервые на советском экране! С тех пор фото Кустинской украшали обложки советских и западных журналов, ее называли "русской Брижит Бардо". Наталья неизменно блистала на кинофорумах, которые проходили в стране, а также много ездила за рубеж, где ей позволялось вести себя максимально раскрепощённо...

Дополнительно

Ее личная жизнь была предметом зависти и пересудов. Кустинская меняла мужей как перчатки: сначала знаменитый режиссер, потом дипломат, а затем - космонавт. Причем последнего она увела у своей экранной подруги по фильму "Три плюс два" - Натальи Фатеевой. Молодожёнам выделили стометровую квартиру в элитном доме в центре Москвы, и Кустинская немедленно начала обустраивать ее по своему вкусу: превращать во дворец с антикварной мебелью и камином - невиданная роскошь для тех лет!
Она не сразу поняла, когда вокруг неё начало образовываться некое "мертвое поле" - один за другим стали уходить из жизни её самые близкие люди: сначала родители, потом нянечка Марусечка, которая вырастила и её саму, и её сына Митю. А потом случился настоящий перелом - открытый перелом бедра: Кустинская сломала ногу во время спектакля, и кровь залила сцену, зрители кричали в ужасе. Едва Наталья встала на ноги - новый удар: перелом основания черепа. Но самым страшным оказалось известие, которое она получила в больнице - у мужа появилась любовница...
В фильме принимали участие: Тамара Сёмина (народная артистка СССР, коллега, подруга), Елена Драпеко (народная артистка СССР, коллега), Олег Волков (второй муж), Геннадий Нилов (актер, партнер по фильму "Три плюс два"), Юрий Смирнов (народный артист РФ, партнер по фильму "Вечный зов"), Наталия Дрожжина (член правления Гильдии актеров, подруга), Ольга Гобзева (бывшая коллега, подруга, ныне инокиня), Людмила Поргина (актриса), Ольга Алексеенко (главный редактор журнала "Плейбой"). Александр Шпагин (историк кино), Михаил Цывин (друг), Александр Кукушкин (адвокат), Алла Клисова (соседка).
качество: IPTVRip
формат: AVI
Видео: 720x400 (1.80:1), 25 fps, XviD build 73 ~1699 kbps avg, 0.24 bit/pixel
Аудио: 48 kHz, AC3 Dolby Digital, 2/0 (L,R) ch, ~192.00 kbps avg

MediaInfo

Полное имя : D:\gotov\Н.Кустинская.Красота как проклятье.2018.IPTVRip.aviФормат файла : AVIФормат файла/Информация : Audio Video InterleaveРазмер файла : 608 МбайтПродолжительность : 44 м. 44 с.Общий поток : 1901 Кбит/секПрограмма кодирования : VirtualDubMod 1.5.10.3 | www.virtualdub-fr.org || (build 2550/release)Библиотека кодирования : VirtualDubMod build 2550/release
ВидеоИдентификатор : 0Формат файла : MPEG-4 VisualПрофиль формата : Advanced Simple@L5Параметр BVOP формата : 2Параметр QPel формата : НетПараметр GMC формата : Без точки переходаПараметр матрицы формата : Default (H.263)Идентификатор кодека : XVIDИдентификатор кодека/Подсказка : XviDПродолжительность : 44 м. 44 с.Битрейт : 1700 Кбит/секШирина : 720 пикселейВысота : 400 пикселейСоотношение сторон : 16:9Частота кадров : 25,000 кадров/секЦветовое пространство : YUVСубдискретизация насыщенности : 4:2:0Битовая глубина : 8 битТип развёртки : ПрогрессивнаяМетод сжатия : С потерямиБит/(Пиксели*Кадры) : 0.236Размер потока : 544 Мбайт (89%)Библиотека кодирования : XviD 73
АудиоИдентификатор : 1Формат файла : AC-3Формат файла/Информация : Audio Coding 3Расширение режима : CM (complete main)Параметр Endianness формата : BigИдентификатор кодека : 2000Продолжительность : 44 м. 44 с.Вид битрейта : ПостоянныйБитрейт : 192 Кбит/секКаналы : 2 каналаРасположение каналов : Front: L RЧастота : 48,0 КГцЧастота кадров : 31,250 кадров/сек (1536 spf)Метод сжатия : С потерямиРазмер потока : 61,4 Мбайт (10%)Выравнивание : Разделение по промежуткамПродолжительность промежутка : 40 мс. (1,00 видеокадр)Время предзагрузки промежутка : 500 мс.

Скриншоты



[geo-torrent.biz]_t_5763309.torrent
Torrent: Registered ·  [ 2019-12-29 00:29 ] ·  da86003c801b1c2b61f7586b433d88a02c8ed3ff

7 KB

Status: checked
Completed: 0 times
Size: 608 MB
Rating: 
(Votes: 0)
Say thanks: 0  Thanks
Похожие темы
[Profile]    [PM]
Display posts from previous:    
Reply to topic

The time now is: Today 05:14

All times are GMT + 7 Hours



You cannot post new topics in this forum
You cannot reply to topics in this forum
You cannot edit your posts in this forum
You cannot delete your posts in this forum
You cannot vote in polls in this forum
You cannot attach files in this forum
You can download files in this forum